Light Alloy v4.8.3 (build 1640)
Light Alloy forum
Добро пожаловать, Гость. Пожалуйста, войдите или зарегистрируйтесь.
Вам не пришло письмо с кодом активации?

Войти
Choose your language: 

   Начало   Помощь Поиск Войти  

Быстрая регистрация
Имя пользователя Пароль
Email Подтвердите пароль
Найдите и кликните на среди ниже показанных картинок





Если письмо с активацией не пришло на ваш e-mail, напишите администратору: 
Страниц: 1 [2] 3  Все   Вниз
  Печать  
Автор Тема: Light Alloy v4.8.3 (build 1640)  (Прочитано 9056 раз)
 Комаров Дмитрий
Experienced
***

Karma: +2/-2
Сообщений: 172


« Ответ #15 : 08 Сентябрь 2014, 17:31:55 »

Вот с такими настройками в Light Alloy v4.8.3 (build 1640) у меня возникают описанные выше проблемы.

Вложения:
* LA.zip (10.27 Кб - загружено 109 раз.)
Записан

Ноутбук ASUS K53SD:
Nvidia GeForce 610M, Realtek ALC269, Intel Core i3 - 2350M 2,3 GHz

ПК:
Материнская плата - ASUS PRIME B250M-PLUS
CPU - Intel Core i5-7500
Видеокарта - Inno3D GeForce GTX 1050 Ti Compact 4GB
 Vga
Newbie
*

Karma: +0/-1
Сообщений: 48



« Ответ #16 : 08 Сентябрь 2014, 17:38:41 »

Ага, на ведроиде наблюдается нечто подобное. Характерный косяк, часто наблюдающийся в видео низкого качества (закодированном с низкими настройками кодека - типично для онлайн-видео, включая это) на кривых декодерах (предположительно - облегченных по вычислительной нагрузке за счет выкидывания "необязательных" операций - деблокинга, в частности).
В общем, ковыряй настройки DXVA кодека (особенно всякие оптимизации на производительность) или отключи его поддержку в LA. Скорее всего собака зарыта именно там.
Записан
 Комаров Дмитрий
Experienced
***

Karma: +2/-2
Сообщений: 172


« Ответ #17 : 08 Сентябрь 2014, 17:39:50 »

To Vga:
При включённом DXVA у меня не идут нормально только видео в SD-разрешении. Они же при отключенном DXVA, т.е. через процессор, показывают нормально.

Попробуй обновить видеодрова
Дрова обновлял вчера через домашний проводной интернет когда был в гостях у мамы. Настольный ПК пал смертью храбрых от перепада электричества, т.е. сгорел блок питания. Придётся покупать стабилизатор.

или просто вырубить DXVA, современные процы вполне способны декодировать большинство видео в софте.
Об этом писал раннее в этой теме http://light-alloy.verona.im/forum/ru_announcements/light_alloy_v4_8_3_build_1640/msg29922/#msg29922
« Последнее редактирование: 08 Сентябрь 2014, 17:42:17 от Комаров Дмитрий » Записан

Ноутбук ASUS K53SD:
Nvidia GeForce 610M, Realtek ALC269, Intel Core i3 - 2350M 2,3 GHz

ПК:
Материнская плата - ASUS PRIME B250M-PLUS
CPU - Intel Core i5-7500
Видеокарта - Inno3D GeForce GTX 1050 Ti Compact 4GB
 vmsoft77
Global moderator
Veteran
******

Karma: +19/-0
Сообщений: 879



« Ответ #18 : 08 Сентябрь 2014, 17:44:37 »

To Комаров Дмитрий:
Вы качали то самое видео разрешением 720X404 ?
Да, - "Мельница".
Расположение: C:\Мельница_hd.mp4
Имя файла: Мельница_hd.mp4
Формат файла: .mp4 (MPEG-4)
Размер файла: 207.22 MB
Длительность: 24mn 8s
Навигация по главам: Нет
Битрейт (все потоки): 1 200 Kbps
Тип битрейта (все потоки): Variable
Файл создан: UTC 1970-01-01 00:00:00
Создан при помощи: Lavf52.39.0
Обложка: Отсутствует
 
Название: Мельница_hd
 
Тип потока: Видео
Длительность: 00:24:08
Кодек: AVC
Кодек/описание: Advanced Video Codec
Кодек/профиль: Baseline@L3.1
Кодек/ID: avc1
Кодек/CABAC: No
Кодек/ReFrames: 1 frame
Размеры изображения: 720 x 404 (16:9)
Частота кадров: 25.000 fps
Частота кадров/тип: Constant
Размер потока: 190 MiB (92%)
Битрейт: 1 100 Kbps
Библиотека кодирования: x264 core 76
Цветовое пространство: YUV
Тип развёртки: Progressive
Колориметрия: 4:2:0
Глубина: 8 bits
Настройки кодирования: cabac=0 / ref=1 / deblock=1:0:0 / analyse=0x1:0x131 / me=esa / subme=5 / psy=1 / psy_rd=0.0:0.0 / mixed_ref=0 / me_range=16 / chroma_me=1 / trellis=0 / 8x8dct=0 / cqm=0 / deadzone=21,11 / chroma_qp_offset=0 / threads=8 / nr=0 / decimate=1 / mbaff=0 / bframes=0 / keyint=50 / keyint_min=25 / scenecut=40 / rc_lookahead=40 / rc=cbr / mbtree=1 / bitrate=1100 / ratetol=1.0 / qcomp=0.60 / qpmin=10 / qpmax=51 / qpstep=4 / vbv_maxrate=14000 / vbv_bufsize=10000 / ip_ratio=1.41 / aq=1:1.00
 
Тип потока: Звук #1
Язык: English
Длительность: 00:24:08.619
Кодек: AAC
Кодек/описание: Advanced Audio Codec
Кодек/профиль: LC
Кодек/ID: 40
Частота дискретизации: 48.0 KHz
Каналов: 2 channels
Битрейт: 96.0 Kbps
Битрейт/тип: Variable
Размер потока: 16.7 MiB (8%)
Метод сжатия: Lossy
Непонимающий
Записан

Windows 10 x64.
Asus GTX 1080 Strix, AMD Phenom II X6 1090T Black Edition (3.2 Ghz), 8 Gb RAM, SSD OCZ Vertex3.
 Vga
Newbie
*

Karma: +0/-1
Сообщений: 48



« Ответ #19 : 08 Сентябрь 2014, 17:48:21 »

Ну т.е. это явно не к LA с претензиями надо, а к NVIDIA (или на чьей оно там карте декодируется, мож у тебя оптимус). Полагаю, если включить DXVA декодирование в другом плеере - будет такая же лажа, т.к. причина в дровах.
У меня ATi Radeon HD5470, на нем все работает без нареканий.
Алсо, если только SD - в плеере есть забавная галочка, "отключить DXVA для SD". Давно гадал, зачем она нужна Улыбающийся
Записан
 Комаров Дмитрий
Experienced
***

Karma: +2/-2
Сообщений: 172


« Ответ #20 : 08 Сентябрь 2014, 17:59:45 »

а к NVIDIA (или на чьей оно там карте декодируется, мож у тебя оптимус)
Во всех GeForce есть оптимус. Моя видеокарта(в ноутбуке с которого у сейчас сижу) в подписи.

Полагаю, если включить DXVA декодирование в другом плеере - будет такая же лажа, т.к. причина в дровах.
Вот именно, что дело не в дровах, так как если запустить данное видео в PotPlayer v1.6.48576 Stable x86(18.06.2014 г.) со включенным DXVA и EVR (Custom Present), то всё будет прекрасно показываться.  

Добавление от 08 Сентября 2014, 17:04:12

Да, - "Мельница".
Они похоже немного подпортили видео перекодированием, так как в феврале файл был объёмом в 371 мб:
General
Complete name                  : D:\Разное видео\Концерты\Мельница Полная версия live unplugged концерта на TVJAM.RU(12 февраля 2010 г.)\Мельница Полная версия live unplugged концерта на TVJAM.RU(12 февраля 2010 г.).mp4
Format                         : MPEG-4
Format profile                 : Base Media
Codec ID                       : isom
File size                      : 371 MiB
Duration                       : 24mn 8s
Overall bit rate mode          : Variable
Overall bit rate               : 2 147 Kbps
Encoded date                   : UTC 1970-01-01 00:00:00
Tagged date                    : UTC 1970-01-01 00:00:00

Video
ID                             : 1
Format                         : AVC
Format/Info                    : Advanced Video Codec
Format profile                 : Baseline@L3.1
Format settings, CABAC         : No
Format settings, ReFrames      : 1 frame
Codec ID                       : avc1
Codec ID/Info                  : Advanced Video Coding
Duration                       : 24mn 8s
Source duration                : 24mn 8s
Bit rate                       : 2 048 Kbps
Width                          : 720 pixels
Height                         : 404 pixels
Display aspect ratio           : 16:9
Frame rate mode                : Constant
Frame rate                     : 25.000 fps
Color space                    : YUV
Chroma subsampling             : 4:2:0
Bit depth                      : 8 bits
Scan type                      : Progressive
Bits/(Pixel*Frame)             : 0.282
Stream size                    : 353 MiB (95%)
Source stream size             : 353 MiB (95%)
Writing library                : x264 core 76
Encoding settings              : cabac=0 / ref=1 / deblock=1:0:0 / analyse=0x1:0x131 / me=esa / subme=5 / psy=1 / psy_rd=0.0:0.0 / mixed_ref=0 / me_range=16 / chroma_me=1 / trellis=0 / 8x8dct=0 / cqm=0 / deadzone=21,11 / chroma_qp_offset=0 / threads=8 / nr=0 / decimate=1 / mbaff=0 / bframes=0 / keyint=50 / keyint_min=25 / scenecut=40 / rc_lookahead=40 / rc=cbr / mbtree=1 / bitrate=2048 / ratetol=1.0 / qcomp=0.60 / qpmin=10 / qpmax=51 / qpstep=4 / vbv_maxrate=14000 / vbv_bufsize=10000 / ip_ratio=1.41 / aq=1:1.00
Language                       : English
Encoded date                   : UTC 1970-01-01 00:00:00
Tagged date                    : UTC 1970-01-01 00:00:00

Audio
ID                             : 2
Format                         : AAC
Format/Info                    : Advanced Audio Codec
Format profile                 : LC
Codec ID                       : 40
Duration                       : 24mn 8s
Source duration                : 24mn 8s
Bit rate mode                  : Variable
Bit rate                       : 96.0 Kbps
Channel(s)                     : 2 channels
Channel positions              : Front: L R
Sampling rate                  : 48.0 KHz
Compression mode               : Lossy
Stream size                    : 16.7 MiB (4%)
Source stream size             : 16.7 MiB (4%)
Language                       : English
Encoded date                   : UTC 1970-01-01 00:00:00
Tagged date                    : UTC 1970-01-01 00:00:00
mdhd_Duration                  : 1448587

Инфа была взята с помощью PotPlayer-а.
« Последнее редактирование: 08 Сентябрь 2014, 18:10:05 от Комаров Дмитрий » Записан

Ноутбук ASUS K53SD:
Nvidia GeForce 610M, Realtek ALC269, Intel Core i3 - 2350M 2,3 GHz

ПК:
Материнская плата - ASUS PRIME B250M-PLUS
CPU - Intel Core i5-7500
Видеокарта - Inno3D GeForce GTX 1050 Ti Compact 4GB
 VictorVG
User
**

Karma: +4/-1
Сообщений: 85


« Ответ #21 : 08 Сентябрь 2014, 18:39:44 »

To Vga:

Ссылка есть? А дальше вытянуть легко - используем расширение Video DownloadHelper (совместимо с FireFox/SeaMonkey, если что XPI это Zip архив, правим <em:maxVersion>2.10</em:maxVersion> на <em:maxVersion>2.30*</em:maxVersion> в install.rdf, сохраняем архив, ставим, предлагаемый к нему конвертер не ставим - не нужен), ПКМ на странице -> Video DownloadHelper -> Media и выбираем или если есть HD 720p (1080р попадается крайне редко) или medium и сохраняем файл в МР4. Скорее всего отдадут в МР4 640х360, но для выбора надо установить в шестерёнке размер. Типовая кодировка AVC/Base line, pregap=1, битрейт < 500 Кб/с, и бывает ролик при скачивании дёргается, но смотреть можно. Улыбающийся

Сам этими приёмами пользуюсь чтобы скачать что-то в дорогу.

Добавление от 08 Сентября 2014, 17:42:45


Они похоже немного подпортили видео перекодированием

Да, судя по ключам специально так сделали чтобы смотрели только в указанном разрешении.
« Последнее редактирование: 08 Сентябрь 2014, 18:42:45 от VictorVG » Записан
 Комаров Дмитрий
Experienced
***

Karma: +2/-2
Сообщений: 172


« Ответ #22 : 08 Сентябрь 2014, 19:49:28 »

Ссылка есть? А дальше вытянуть легко - используем расширение Video DownloadHelper
Ну а я лично просто купил IDM. Легко и без заморочек(интегрируясь в любой из известных браузеров) позволяет скачивать любое видео или аудио с любого сайта, где только это возможно+ позволяет качать файлы и целые сайты.
Записан

Ноутбук ASUS K53SD:
Nvidia GeForce 610M, Realtek ALC269, Intel Core i3 - 2350M 2,3 GHz

ПК:
Материнская плата - ASUS PRIME B250M-PLUS
CPU - Intel Core i5-7500
Видеокарта - Inno3D GeForce GTX 1050 Ti Compact 4GB
 vmsoft77
Global moderator
Veteran
******

Karma: +19/-0
Сообщений: 879



« Ответ #23 : 08 Сентябрь 2014, 19:58:13 »

Это все, конечно, хорошо... Но давайте вернемся в рамки обсуждаемой темы, т.е. "Light Alloy v4.8.3 (build 1640)".
Способы загрузки/кодирования/хранения видео на сторонних ресурсах и обсуждение достоинств/недостатков железа, - давайте перенесем в тему "Оффтоп".
Улыбающийся
Записан

Windows 10 x64.
Asus GTX 1080 Strix, AMD Phenom II X6 1090T Black Edition (3.2 Ghz), 8 Gb RAM, SSD OCZ Vertex3.
 Fever
Гость
« Ответ #24 : 09 Сентябрь 2014, 16:59:09 »

Начиная, с версии 4.8.2, колесо мыши не меняет свое значение при наведении на шкалу времени и громкости. Галочку в настройках поставил.) Может, не у меня одного такая проблема?
Записан
 vmsoft77
Global moderator
Veteran
******

Karma: +19/-0
Сообщений: 879



« Ответ #25 : 09 Сентябрь 2014, 22:41:30 »

To Fever:
Начиная, с версии 4.8.2, колесо мыши не меняет свое значение при наведении на шкалу времени и громкости. Галочку в настройках поставил.) Может, не у меня одного такая проблема?
Проблемный билд локализован. И в следующей бетке данного косяка, я думаю, не будет.
По поводу работы данной опции в версии 4.8.3 (4.8.2): она работает, - но нужно наводить курсор немного выше (примерно на цифры тайм лайна если пользовать дефолтную шкурку). Улыбающийся
« Последнее редактирование: 10 Сентябрь 2014, 00:57:14 от vmsoft77 » Записан

Windows 10 x64.
Asus GTX 1080 Strix, AMD Phenom II X6 1090T Black Edition (3.2 Ghz), 8 Gb RAM, SSD OCZ Vertex3.
 zooloogorbonos
Experienced
***

Karma: +2/-0
Сообщений: 115



« Ответ #26 : 10 Сентябрь 2014, 11:12:25 »

To vmsoft77:

Давайте, мой вопрос на 1 странице.
Записан

ОС: Windows 7 SP1 *64
Видеокарты: Asus GeForce GTX 465 1 Gb, проц: i5 3470 , ram 16 Gb Ram
Винт: SSD A-Data XPG SX910 128GB

Плеер: Light Alloy v4.8.8
Кодеки: Внутренние и MadVR
 vmsoft77
Global moderator
Veteran
******

Karma: +19/-0
Сообщений: 879



« Ответ #27 : 10 Сентябрь 2014, 20:24:17 »

To zooloogorbonos:
Давайте, мой вопрос на 1 странице.
Это не ко мне.
Я всего лишь один из пользователей....
Улыбающийся
Записан

Windows 10 x64.
Asus GTX 1080 Strix, AMD Phenom II X6 1090T Black Edition (3.2 Ghz), 8 Gb RAM, SSD OCZ Vertex3.
 Isolated
Veteran
*****

Karma: +8/-4
Сообщений: 664


Сладкоежка.


« Ответ #28 : 12 Сентябрь 2014, 14:31:16 »

падение при открытии файла.

Вложения:
* LA.exe-4-8-3_3-9-5415-1628.7z (0.13 Кб - загружено 83 раз.)
* LA.7z (14.75 Кб - загружено 85 раз.)
Записан

Косил косой косой косой косой.
 ecology
Global moderator
Newbie
******

Karma: +18/-2
Сообщений: 24



« Ответ #29 : 12 Сентябрь 2014, 16:33:01 »

To S_Snake:
Семпл будет ? А то что-то 40.99 GB
Или хотя-бы torrent|magnet
« Последнее редактирование: 12 Сентябрь 2014, 16:35:11 от ecology » Записан

Страниц: 1 [2] 3  Все   Вверх
  Печать  
 
Перейти в: